设为首页收藏本站免责声明Blue公馆

查看: 155|回复: 9

【火影忍者】【4K】【280G】【720集】【mp4】【日语中字】【无水印】

[复制链接]
     

2

主题

23

帖子

10万

积分

年费VIP

积分
100450
发表于 2020-3-9 09:50:32 | 显示全部楼层 |阅读模式



◎译  名 火影忍者 / Naruto / 狐忍
◎片  名 NARUTO -ナルト-
◎年  代 2002
◎产  地 日本
◎类  别 喜剧 / 动画 / 冒险
◎语  言 日语 / 英语
◎上映日期 2002-10-03(日本)
◎IMDb评分  8.3/10 from 60504 users
◎IMDb链接  https://www.imdb.com/title/tt0409591
◎豆瓣评分 8.9/10 from 76776 users
◎豆瓣链接 https://movie.douban.com/subject/1427318/
◎片  长 24分钟
◎导  演 伊达勇登 Date Hayato / 村田雅彦 Masahiko Murata / 都留稔幸 Tsuru Toshiyuki / 若林厚史 Atsushi Wakabayashi / 小坂春女 Kosaka Harume / 川口敬一郎 Keiichirou Kawaguchi
◎编  剧 隅泽克之 Katsuyuki Sumizawa / 武上纯希 Junki Takegami / 大和屋晓 Akatsuki Yamatoya / 西园悟 Nishizono Satoru / 横手美智子 Michiko Yokote
◎主  演 竹内顺子 Junko Takeuchi
       杉山纪彰 Noriaki Sugiyama
       中村千绘 Chie Nakamura
       井上和彦 Kazuhiko Inoue
       关俊彦 Toshihiko Seki
       松本和香子 Kujira
       大塚芳忠 Hôchû Ôtsuka
       胜生真沙子 Masako Katsuki
       柴田秀胜 Hidekatsu Shibata
       森久保祥太郎 Shotaro Morikubo
       伊藤健太郎 Kentarô Itô
       柚木凉香 Ryôka Yuzuki
       小杉十郎太 Jûrôta Kosugi
       增川洋一 Yoichi Masukawa
       远近孝一 Kôichi Tôchika
       田村由加莉 Yukari Tamura
       江原正士 Masashi Ebara
       水树奈奈 Nana Mizuki
       鸟海浩辅 Kosuke Toriumi
       川田绅司 Shinji Kawada
       落合露美 Rumi Ochiai
       大谷育江 Ikue Ootani
       重松朋 Tomo Shigematsu
       下屋则子 Noriko Shitaya
       飞田展男 Nobuo Tobita
       石冢运升 Unshô Ishizuka
       浅野真由美 Mayumi Asano
       石田彰 Akira Ishida
       加濑康之 Yasuyuki Kase
       朴璐美 Romi Park
       中田让治 Jôji Nakata
       保志总一朗 Soichiro Hoshi
       神奈延年 Nobutoshi Canna
       三木真一郎 Shinichirô Miki
       中村大树 Daiki Nakamura
       家中宏 Hiroshi Yanaka
       福田信昭 Nobuaki Fukuda
       楠大典 Taiten Kusunoki
       本田贵子 Takako Honda
       平田广明 Hiroaki Hirata
       津田健次郎 Kenjirô Tsuda
       坪井智浩 Tomohiro Tsuboi
       河野智之 Tomoyuki Kôno
       根本圭子 Keiko Nemoto
       铃木琢磨 Takuma Suzuki
       小林由美子 Yumiko Kobayashi
       津田英三 Tsuda Eizou
       伊藤和晃 Itou Kazuaki
       浅井清己 Kiyomi Asai
       佐佐木望 Nozomu Sasaki
       宫田光 Hikaru Miyata
       翠准子 Junko Midori
       石川英郎 Hideo Ishikawa
       檀臣幸 Tomoyuki Dan
       菅生隆之 Takayuki Sugo
       堀内贤雄 Ken'yû Horiuchi
       田中正彦 Masahiko Tanaka
       三宅健太 Kenta Miyake
       千叶进步 Susumu Chiba
       咲野俊介 Shunsuke Sakuya
       渡边明乃 Akeno Watanabe
       森川智之 Toshiyuki Morikawa
       青野武 Takeshi Aono
       石川静 Shizuka Ishikawa
       滨田贤二 Kenji Hamada
       渡部猛 Takeshi Watabe
       天田益男 Masuo Amada
       能登麻美子 Mamiko Noto
       辻亲八 Shinpachi Tsuji
       津村真琴 Makoto Tsumura
       菅沼久义 Hisayoshi Suganuma
       山本泰辅 Taisuke Yamamoto


◎标  签 火影忍者 | 动漫 | 日本 | 动画 | 热血 | 日本动画 | Naruto | 日本动漫

◎简  介  

  十多年前一只拥有巨大威力的妖兽“九尾妖狐”袭击了木叶忍者村,当时的第四代火影拼尽全力,以自己的生命为代价将“九尾妖狐”封印在了刚出生的鸣人身上。木叶村终于恢复了平静,但村民们却把鸣人当成像“九尾妖狐”那样的怪物看待,所有人都疏远他。鸣人自小就孤苦无依,一晃十多年过去了,少年鸣人考入了木叶村的忍者学校,结识了好朋友佐助和小樱。佐助是宇智波家族的传人之一,当他还是小孩的时候他的哥哥——一个已经拥有高超忍术的忍者将他们家族的人都杀死了,然后投靠了一直想将木叶村毁灭的大蛇丸,佐助自小就发誓要超越哥哥,为家族报仇。鸣人他们在忍者学校得到了教官卡卡西的精心指点,在他的帮助下去迎接成长中的一次又一次挑战!
457-啊啊令人敬仰的纲手大人.mp4_20200309_094655.171.jpg
457-啊啊令人敬仰的纲手大人.mp4_20200309_094644.530.jpg
457-啊啊令人敬仰的纲手大人.mp4_20200309_094637.282.jpg General
457-啊啊令人敬仰的纲手大人.mp4
Format                         : MPEG-4
Format profile                 : Base Media
Codec ID                       : isom (isom/iso2/mp41)
File size                      : 425 MiB
Duration                       : 23 min 9 s
Overall bit rate mode          : Variable
Overall bit rate               : 2 565 kb/s
Writing application            : Lavf58.12.100

Video
ID                             : 1
Format                         : HEVC
Format/Info                    : High Efficiency Video Coding
Format profile                 : Main@L5@Main
Codec ID                       : hev1
Codec ID/Info                  : High Efficiency Video Coding
Duration                       : 23 min 9 s
Bit rate                       : 2 368 kb/s
Width                          : 3 840 pixels
Height                         : 2 160 pixels
Display aspect ratio           : 16:9
Frame rate mode                : Constant
Frame rate                     : 25.000 FPS
Color space                    : YUV
Chroma subsampling             : 4:2:0
Bit depth                      : 8 bits
Bits/(Pixel*Frame)             : 0.011
Stream size                    : 392 MiB (92%)
Codec configuration box        : hvcC

Audio
ID                             : 2
Format                         : AAC LC
Format/Info                    : Advanced Audio Codec Low Complexity
Codec ID                       : mp4a-40-2
Duration                       : 23 min 9 s
Bit rate mode                  : Variable
Bit rate                       : 192 kb/s
Maximum bit rate               : 230 kb/s
Channel(s)                     : 2 channels
Channel layout                 : L R
Sampling rate                  : 44.1 kHz
Frame rate                     : 43.066 FPS (1024 SPF)
Compression mode               : Lossy
Stream size                    : 31.4 MiB (7%)
Default                        : Yes
Alternate group                : 1



购买主题 已有 2 人购买  本主题需向作者支付 48000 B币 才能浏览




上一篇:【秦时明月之百步飞剑重制版】【10集】【1080p】【3.97g】【mp4】【国语中字】
下一篇:【独步天下】【唐艺昕 林峯】【1080p】【45集】【30.90g】国语中字
主题浏览记录
回复

使用道具 举报

     

1001

主题

1991

帖子

62万

积分

年费VIP

积分
620381
QQ
发表于 2020-3-9 09:52:32 来自手机 | 显示全部楼层
收下了

回复

使用道具 举报

     
3五品通政司
24427/36000

52

主题

2003

帖子

2万

积分

五品通政司

Rank: 3Rank: 3

积分
24427
发表于 2020-3-9 11:08:34 | 显示全部楼层
    火影忍者好看

回复

使用道具 举报

     
2七品京县丞
8104/12000

3

主题

268

帖子

8104

积分

七品京县丞

Rank: 2

积分
8104
发表于 2020-3-9 11:11:27 | 显示全部楼层
这个可以有哦

回复

使用道具 举报

     
1九品芝麻官
2358/3000

0

主题

13

帖子

2358

积分

九品芝麻官

Rank: 1

积分
2358
发表于 2020-3-9 11:38:21 | 显示全部楼层
这个厉害了

回复

使用道具 举报

     
3五品通政司
23858/36000

3

主题

27

帖子

2万

积分

五品通政司

Rank: 3Rank: 3

积分
23858
发表于 2020-3-9 12:43:29 来自手机 | 显示全部楼层
厉害 刚想去做这个工作。大神已经搞好了

回复

使用道具 举报

     
2七品京县丞
4692/12000

0

主题

224

帖子

4692

积分

七品京县丞

Rank: 2

积分
4692
发表于 2020-3-9 14:54:22 | 显示全部楼层
童年回忆啊
鸣人都长大了。。

回复

使用道具 举报

     
2七品京县丞
10567/12000

0

主题

1336

帖子

1万

积分

七品京县丞

Rank: 2

积分
10567
发表于 2020-3-9 17:45:12 | 显示全部楼层
火影好看,谢谢分享

回复

使用道具 举报

     
2七品京县丞
3301/12000

0

主题

534

帖子

3301

积分

七品京县丞

Rank: 2

积分
3301
发表于 2020-3-10 11:43:44 | 显示全部楼层
经典的动画片下载了

回复

使用道具 举报

     

0

主题

84

帖子

66万

积分

终身VIP

积分
662686
发表于 4 天前 | 显示全部楼层
【火影忍者】【4K】【280G】【720集】【mp4】【日语中字】【无水印】

回复

使用道具 举报

您需要登录后才可以回帖 登录 | 立即注册

本版积分规则

微信公众号

新浪微博

联系我们

电子邮箱: 610000596@qq.com

商务QQ: 610000596  610000596 

工作时间: 周一到周日 12:00 - 02:00

QQ|Archiver|手机版|小黑屋|免责声明|Blue高清公馆   Blue公馆

GMT+8, 2020-3-30 23:41 , Processed in 0.454240 second(s), 45 queries .

Powered by Discuz! X3.4 © 2001-2013 Comsenz Inc.